<?xml version="1.0" standalone="no"?>
<!DOCTYPE svg PUBLIC "-//W3C//DTD SVG 1.1//EN" "http://www.w3.org/Graphics/SVG/1.1/DTD/svg11.dtd" >
<!--
2020-11-26: Created with FontForge (http://fontforge.org)
-->
<svg xmlns="http://www.w3.org/2000/svg" xmlns:xlink="http://www.w3.org/1999/xlink" version="1.1">
<metadata>
Created by FontForge 20170731 at Thu Nov 26 01:13:28 2020
 By root

</metadata>
<defs>
<font id="Flaticon" horiz-adv-x="512" >
  <font-face 
    font-family="Flaticon"
    font-weight="400"
    font-stretch="normal"
    units-per-em="512"
    panose-1="2 0 5 3 0 0 0 0 0 0"
    ascent="448"
    descent="-64"
    bbox="-0.000557733 -64.001 512.001 448"
    underline-thickness="25.6"
    underline-position="-51.2"
    unicode-range="U+0020-F113"
  />
    <missing-glyph />
    <glyph glyph-name="space" unicode=" " horiz-adv-x="200" 
 />
    <glyph glyph-name="008-add-to-shopping-cart" unicode="&#xf107;" 
d="M505.219 320.688c5.28223 -6.10254 7.64941 -14.1992 6.49512 -22.1895l-27.8076 -191.88c-1.98242 -13.6748 -13.7051 -23.8203 -27.5215 -23.8203h-237.77c-9.86328 0 -18.9873 5.22656 -23.9824 13.7324l-135.735 231.266l-39.6777 12.8975
c-14.6064 4.74707 -22.5986 20.4365 -17.8506 35.043c4.74609 14.6055 20.4414 22.5977 35.041 17.8506l49.7207 -16.1611c6.46973 -2.10156 11.9443 -6.50391 15.3887 -12.3711l20.4004 -34.7568h362.272c8.06934 0 15.7441 -3.50781 21.0264 -9.61035zM375.578 187.464
c10.542 0 19.0869 8.54492 19.085 19.0859c0 10.54 -8.54395 19.0859 -19.085 19.0859h-29.584v29.5801c0 10.541 -8.54199 19.0859 -19.082 19.0859c-10.541 0 -19.085 -8.5459 -19.085 -19.0859v-29.5801h-29.5781c-10.54 0 -19.0859 -8.5459 -19.0859 -19.0859
c0 -10.542 8.5459 -19.0859 19.0859 -19.0859h29.5781v-29.5801c0 -10.541 8.54395 -19.0859 19.085 -19.0859c10.54 0 19.082 8.5459 19.082 19.0859v29.5801h29.584zM212.873 27.1826c0 21.0635 17.0752 38.1387 38.1387 38.1387s38.1387 -17.0752 38.1387 -38.1387
c0 -21.0645 -17.0752 -38.1396 -38.1387 -38.1396s-38.1387 17.0752 -38.1387 38.1396zM413.976 65.3203c21.0645 0 38.1357 -17.0771 38.1357 -38.1387c0 -21.0635 -17.0723 -38.1377 -38.1357 -38.1377c-21.0703 0 -38.1406 17.0742 -38.1406 38.1377
c0 21.0615 17.0693 38.1387 38.1406 38.1387z" />
    <glyph glyph-name="006-add-to-cart-2" unicode="&#xf105;" 
d="M501.333 370.604v-30h-29.6807l-32 -221.133h-299.934l9.86523 -65.0605c12.085 10.9707 28.1191 17.665 45.6885 17.665c32.3604 0 59.4971 -22.7168 66.3496 -53.0371h35.3242c6.85156 30.3203 33.9883 53.0371 66.3506 53.0371
c37.5146 0 68.0371 -30.5215 68.0371 -68.0371s-30.5205 -68.0381 -68.0371 -68.0381c-32.3613 0 -59.499 22.7178 -66.3506 53.0381h-35.3242c-6.85059 -30.3213 -33.9893 -53.0381 -66.3496 -53.0381c-36.5742 0 -66.4863 29.0098 -67.9668 65.2256l-63.1953 416.774
h-53.4434v30h79.2373l11.7344 -77.3965h399.694zM233.309 4.03809c0 20.9727 -17.0635 38.0371 -38.0361 38.0371c-20.9746 0 -38.0381 -17.0635 -38.0381 -38.0371s17.0635 -38.0381 38.0381 -38.0381c20.9727 0 38.0361 17.0645 38.0361 38.0381zM325.259 4.03809
c0 -20.9736 17.0645 -38.0381 38.0381 -38.0381c20.9727 0 38.0371 17.0645 38.0371 38.0381c0 20.9727 -17.0625 38.0371 -38.0371 38.0371s-38.0381 -17.0635 -38.0381 -38.0371zM106.194 340.604l28.9756 -191.133h278.511l27.6582 191.133h-335.145zM288.708 305.162
v-45.124h45.125v-30h-45.125v-45.125h-30v45.125h-45.124v30h45.124v45.124h30z" />
    <glyph glyph-name="013-shopping-cart-3" unicode="&#xf10c;" 
d="M341.334 -10.667c0 29.4551 23.8779 53.333 53.333 53.333s53.333 -23.8779 53.333 -53.333s-23.8779 -53.333 -53.333 -53.333s-53.333 23.8779 -53.333 53.333zM128 -10.667c0 29.4551 23.8779 53.333 53.333 53.333s53.333 -23.8779 53.333 -53.333
s-23.8779 -53.333 -53.333 -53.333s-53.333 23.8779 -53.333 53.333zM471.467 211.2c4.2666 -2.13281 4.2666 -6.40039 4.2666 -10.667l-6.40039 -40.5332c0 -4.26562 -4.26562 -8.5332 -8.5332 -8.5332l-311.467 -42.666
c8.53418 -14.9336 25.5996 -23.4668 42.667 -23.4668h245.333c6.40039 0 10.667 -4.2666 10.667 -10.667s-4.2666 -10.667 -10.667 -10.667h-245.333c-36.2666 0 -66.1328 25.5996 -74.666 59.7334l-51.2002 260.267h-55.4668c-6.40039 0 -10.667 4.2666 -10.667 10.667
s4.2666 10.666 10.666 10.666h64c4.2666 0 8.53418 -4.26562 10.667 -8.5332l10.667 -55.4658h149.333c6.40039 0 10.667 -4.2666 10.667 -10.667c0 -76.7998 61.8672 -138.667 138.667 -138.667c23.4658 0 46.9326 6.40039 66.1328 17.0674
c4.26758 2.13281 8.53418 2.13281 10.667 2.13281zM394.667 448c64 0 117.333 -53.333 117.333 -117.333s-53.333 -117.333 -117.333 -117.333s-117.333 53.333 -117.333 117.333s53.333 117.333 117.333 117.333zM437.333 320c6.40039 0 10.667 4.2666 10.668 10.667
c0 6.40039 -4.2666 10.667 -10.667 10.667h-32v32c0 6.40039 -4.2666 10.667 -10.667 10.667s-10.667 -4.2666 -10.667 -10.667v-32h-32c-6.40039 0 -10.667 -4.2666 -10.667 -10.667s4.2666 -10.667 10.667 -10.667h32v-32c0 -6.40039 4.26562 -10.667 10.666 -10.667
s10.667 4.2666 10.667 10.667v32h32z" />
    <glyph glyph-name="004-add-to-cart" unicode="&#xf103;" 
d="M407 432c57.8906 0 105 -47.1094 105 -105s-47.1094 -105 -105 -105s-105 47.1094 -105 105s47.1094 105 105 105zM452 312v30h-30v30h-30v-30h-30v-30h30v-30h30v30h30zM137 72c-8.27637 0 -15 -6.72363 -15 -15s6.72363 -15 15 -15h285v-30h-32.7627
c1.68066 -4.71484 2.7627 -9.71582 2.7627 -15c0 -24.8145 -20.1855 -45 -45 -45s-45 20.1855 -45 45c0 5.28418 1.08203 10.2852 2.7627 15h-65.5254c1.68066 -4.71484 2.7627 -9.71582 2.7627 -15c0 -24.8145 -20.1855 -45 -45 -45s-45 20.1855 -45 45
c0 5.28418 1.08203 10.2852 2.7627 15h-17.7627c-24.8145 0 -45 20.1855 -45 45s20.1855 45 45 45h11.2939l-53.3203 240h-94.9736v30h119.027l20.0039 -90h141.261c3.78223 -10.6035 8.38867 -20.7988 14.5605 -30h-44.0586l5.00098 -60h62.4102l2.66113 31.9229
c8.71191 -7.29297 18.1797 -13.5986 28.5459 -18.5322l-1.11719 -13.3906h70.4375l0.314453 1.21777c11.4111 1.0293 22.3848 3.32715 32.8066 7.0293l-33.252 -128.247c11.165 0 -273.302 0 -281.602 0zM345.795 162l-5.00098 -60h54.6045l15.5547 60h-65.1582z
M315.705 162h-57.4121l5.00098 -60h47.4102zM233.205 102l-5.00098 60h-62.5029l13.3359 -60h54.168zM145.698 252l13.3369 -60h66.6709l-5.00098 60h-75.0068zM212 -3c0 8.27637 -6.72363 15 -15 15s-15 -6.72363 -15 -15s6.72363 -15 15 -15s15 6.72363 15 15zM362 -3
c0 8.27637 -6.72363 15 -15 15s-15 -6.72363 -15 -15s6.72363 -15 15 -15s15 6.72363 15 15z" />
    <glyph glyph-name="015-cart" unicode="&#xf10e;" 
d="M177.462 73.5918c34.7129 0 62.9512 -28.2383 62.9512 -62.9512c0 -34.7139 -28.2383 -62.9512 -62.9512 -62.9512s-62.9512 28.2373 -62.9512 62.9512c0 34.7129 28.2383 62.9512 62.9512 62.9512zM177.462 -16.3379c14.875 0 26.9785 12.1055 26.9785 26.9795
s-12.0986 26.9785 -26.9785 26.9785c-14.874 0 -26.9795 -12.1045 -26.9795 -26.9785s12.1055 -26.9795 26.9795 -26.9795zM378.905 73.5918c34.7129 0 62.9512 -28.2383 62.9512 -62.9512c0 -34.7139 -28.2383 -62.9512 -62.9512 -62.9512
s-62.9512 28.2373 -62.9512 62.9512c0 34.7129 28.2383 62.9512 62.9512 62.9512zM378.905 -16.3379c14.874 0 26.9795 12.1055 26.9795 26.9795s-12.0996 26.9785 -26.9795 26.9785c-14.874 0 -26.9785 -12.1045 -26.9785 -26.9785s12.1045 -26.9795 26.9785 -26.9795z
M508.183 313.088c3.40527 -4.3584 4.62207 -10.042 3.28516 -15.4141l-44.9648 -181.054c-1.99023 -8.01562 -9.19043 -13.6514 -17.4521 -13.6514h-319.552c-8.47656 0 -15.7969 5.91699 -17.584 14.2031l-56.2959 261.577h-37.6328
c-9.93457 0 -17.9863 8.05176 -17.9863 17.9854c0 9.93457 8.05176 17.9863 17.9863 17.9863h52.1592c8.47656 0 15.7969 -5.91699 17.584 -14.2031l17.3281 -80.5166h70.6055v-35.9727h-62.8633l31.2256 -145.094h290.966l36.0322 145.088h-63.3408
c-9.93359 0 -17.9863 8.05176 -17.9863 17.9863c0 9.93359 8.05273 17.9854 17.9863 17.9854h86.333c5.53418 0 10.7627 -2.54785 14.167 -6.90625zM291.373 436.31c73.3896 0 133.097 -59.707 133.097 -133.096c0 -73.3896 -59.707 -133.097 -133.097 -133.097
s-133.097 59.707 -133.097 133.097c0 73.3887 59.707 133.096 133.097 133.096zM291.373 206.089c53.5576 0 97.125 43.5742 97.124 97.125c0 53.5498 -43.5732 97.124 -97.124 97.124c-53.5557 0 -97.124 -43.5742 -97.124 -97.124
c0 -53.5508 43.5684 -97.125 97.124 -97.125zM291.373 358.97c9.93555 0 17.9863 -8.05078 17.9863 -17.9863v-75.541c0 -9.93457 -8.05176 -17.9863 -17.9863 -17.9863c-9.93359 0 -17.9863 8.05176 -17.9863 17.9863v75.541c0 9.93457 8.05273 17.9863 17.9863 17.9863z
M328.544 321.199c9.93555 0 17.9863 -8.05176 17.9863 -17.9854c0 -9.93457 -8.05176 -17.9863 -17.9863 -17.9863h-74.9414c-9.93359 0 -17.9854 8.05176 -17.9854 17.9863c0 9.93359 8.05176 17.9854 17.9854 17.9854h74.9414z" />
    <glyph glyph-name="007-add-to-cart-3" unicode="&#xf106;" 
d="M501.333 370.604v-30h-29.6807l-32 -221.133h-299.934l9.86523 -65.0605c12.085 10.9707 28.1191 17.665 45.6885 17.665c32.3604 0 59.4971 -22.7168 66.3496 -53.0371h35.3242c6.85156 30.3203 33.9883 53.0371 66.3506 53.0371
c37.5146 0 68.0371 -30.5215 68.0371 -68.0371s-30.5205 -68.0381 -68.0371 -68.0381c-32.3613 0 -59.499 22.7178 -66.3506 53.0381h-35.3242c-6.85059 -30.3213 -33.9893 -53.0381 -66.3496 -53.0381c-36.5742 0 -66.4863 29.0098 -67.9668 65.2256l-63.1953 416.774
h-53.4434v30h79.2373l11.7344 -77.3965h399.694zM210.272 -10.9619v30h-30v-30h30zM348.297 19.0381v-30h30v30h-30zM213.584 230.038h45.124v-45.125h30v45.125h45.125v30h-45.125v45.124h-30v-45.124h-45.124v-30z" />
    <glyph glyph-name="016-shopping-cart-5" unicode="&#xf10f;" 
d="M221.998 298.999c-11.0459 0 -20 8.9541 -20 20s8.9541 20 20 20h55v55c0 11.0459 8.9541 20 20 20s20 -8.9541 20 -20v-55h55c11.0459 0 20 -8.9541 20 -20s-8.9541 -20 -20 -20h-55v-55c0 -11.0459 -8.9541 -20 -20 -20s-20 8.9541 -20 20v55h-55zM496.303 338.528
c10.7881 -2.37793 17.6035 -13.0518 15.2236 -23.8369l-34.6162 -156.925c-3.91016 -17.7275 -13.8105 -33.7422 -27.873 -45.1006c-14.1084 -11.3926 -31.8799 -17.667 -50.041 -17.667c-11.0459 0 -20 8.9541 -20 20s8.9541 20 20 20
c18.7998 0 34.7783 12.9053 38.8535 31.3828l34.6152 156.924c2.37891 10.7861 13.0527 17.6006 23.8379 15.2227zM398.997 54c32.5332 0.000976562 58.999 -26.4658 59.001 -58.999c0 -32.5332 -26.4668 -59 -59 -59s-59 26.4668 -59 59
c0 6.64746 1.12109 13.0332 3.15723 19h-86.3135c2.03613 -5.9668 3.15723 -12.3525 3.15723 -19c0 -32.5332 -26.4668 -59 -59 -59s-59 26.4668 -59 59c0 6.64746 1.12109 13.0332 3.15723 19h-8.15723c-33.084 0 -60 26.916 -60 60
c0 0.168945 0.0205078 0.332031 0.0253906 0.5c-0.00488281 0.167969 -0.0253906 0.331055 -0.0253906 0.5c0 24.2764 14.5 45.2148 35.2871 54.6523l-23.7754 218.418c-4.58789 34.1777 -34.0049 59.9268 -68.5107 59.9268c-11.0459 0 -20 8.9541 -20 20s8.9541 20 20 20
c54.582 0 101.098 -40.8115 108.198 -94.9297l0.0527344 -0.438477l23.6895 -217.63h147.058c11.0459 0 20 -8.9541 20 -20s-8.9541 -20 -20 -20h-161.999c-11.0283 0 -20 -8.97168 -20 -20c0 -0.168945 -0.0214844 -0.332031 -0.0253906 -0.5
c0.00390625 -0.167969 0.0253906 -0.331055 0.0253906 -0.5c0 -11.0283 8.97168 -20 20 -20h261.998zM200.998 -23.998c10.4766 0 19 8.52344 19 19s-8.52344 19 -19 19s-19 -8.52344 -19 -19s8.52344 -19 19 -19zM398.997 -23.998c10.4766 0 19 8.52344 19 19
s-8.52344 19 -19 19c-10.4775 0 -19 -8.52344 -19 -19s8.52246 -19 19 -19z" />
    <glyph glyph-name="002-shopping-basket" unicode="&#xf101;" 
d="M154.447 159c5.52246 0 10 -4.47656 10 -10v-77.5674c0 -5.52246 -4.47754 -10 -10 -10c-5.52344 0 -10 4.47754 -10 10v77.5674c0 5.52344 4.47656 10 10 10zM246 159c5.52344 0 10 -4.47656 10 -10v-77.5674c0 -5.52246 -4.47656 -10 -10 -10s-10 4.47754 -10 10
v77.5674c0 5.52344 4.47656 10 10 10zM451.604 151.493c35.4297 -14.7773 60.3965 -49.7725 60.3965 -90.4932c0 -54.0381 -43.9619 -98 -98 -98c-22.5352 0 -43.3154 7.65039 -59.8877 20.4844h-277.948c-4.90527 0 -9.08496 3.55664 -9.87109 8.39746l-36.5176 225.064
h-19.7754c-5.52344 0 -10 4.47656 -10 10v81.2041c0 5.52246 4.47656 10 10 10h196.847v64.9346c0.000976562 20.9062 17.0098 37.9141 37.9141 37.915c20.9072 0 37.915 -17.0088 37.915 -37.915v-64.9336h52.3242c5.52344 0 10 -4.47754 10 -10
c0 -5.52344 -4.47656 -10 -10 -10h-52.3232v-43.29c-0.000976562 -6.47754 -1.63574 -12.5771 -4.51074 -17.915h193.834v61.2041h-47c-5.52344 0 -10 4.47656 -10 10c0 5.52246 4.47656 10 10 10h57c5.52344 0 10 -4.47754 10 -10v-81.2041
c0 -5.52344 -4.47656 -10 -10 -10h-19.7764zM226.847 383.085v-128.225c0 -4.78418 1.86426 -9.2832 5.24805 -12.667c3.38379 -3.38477 7.88281 -5.24707 12.667 -5.24707c9.87793 0 17.915 8.03809 17.915 17.915v128.224c0 9.87793 -8.03711 17.915 -17.915 17.915
s-17.915 -8.03809 -17.915 -17.915zM20 298.15v-61.2051h191.328c-2.92578 5.44434 -4.48145 11.5596 -4.48145 17.915v43.29h-186.847zM50.0371 216.946l34.6357 -213.462h250.032c-11.7578 16.165 -18.7051 36.043 -18.7051 57.5156
c0 16.6631 4.18457 32.3662 11.5518 46.1191v41.8809c0 5.52344 4.47754 10 10 10c5.52344 0 10 -4.47656 10 -10v-16.0371c17.4795 16.1514 40.8291 26.0371 66.4482 26.0371c6.24707 0 12.3574 -0.59375 18.2822 -1.71777l9.68066 59.6641h-391.926zM414 -17
c43.0088 0 78 34.9912 78 78s-34.9912 78 -78 78s-78 -34.9912 -78 -78s34.9912 -78 78 -78zM448 71c5.52344 0 10 -4.47656 10 -10s-4.47656 -10 -10 -10h-24v-24c0 -5.52344 -4.47656 -10 -10 -10s-10 4.47656 -10 10v24h-24c-5.52344 0 -10 4.47656 -10 10
s4.47656 10 10 10h24v24c0 5.52344 4.47656 10 10 10s10 -4.47656 10 -10v-24h24zM380 298.15c-2.62988 0 -5.20996 1.06934 -7.07031 2.92969c-1.85938 1.86035 -2.92969 4.43945 -2.92969 7.07031c0 2.62988 1.07031 5.20996 2.92969 7.06934
c1.86035 1.86035 4.44043 2.93066 7.07031 2.93066s5.20996 -1.07031 7.07031 -2.93066c1.85938 -1.85938 2.92969 -4.43945 2.92969 -7.06934c0 -2.63086 -1.07031 -5.20996 -2.92969 -7.07031c-1.86035 -1.86035 -4.44043 -2.92969 -7.07031 -2.92969z" />
    <glyph glyph-name="018-shopping-cart-6" unicode="&#xf111;" 
d="M438.832 214.832c-40.3447 0 -73.167 32.8232 -73.167 73.1689c0 40.3447 32.8223 73.168 73.167 73.168c40.3457 0 73.168 -32.8232 73.168 -73.168c0 -40.3457 -32.8223 -73.1689 -73.168 -73.1689zM395.262 303.001v-30.001h28.5703v-28.5703h30v28.5703h28.5703
v30.001h-28.5703v28.5703h-30v-28.5703h-28.5703zM113.605 80.001c0 -8.46875 6.8916 -15.3594 15.3604 -15.3594h301.488v-30h-30.7314c2.55176 -5.95605 3.96875 -12.5078 3.96875 -19.3867c0 -27.2324 -22.1543 -49.3867 -49.3867 -49.3867
s-49.3867 22.1553 -49.3867 49.3867c0 6.87988 1.41699 13.4316 3.96875 19.3867h-72.6562c2.55273 -5.95605 3.96973 -12.5078 3.96973 -19.3867c0 -27.2324 -22.1562 -49.3867 -49.3877 -49.3867c-27.2305 0 -49.3857 22.1553 -49.3857 49.3867
c0 6.87988 1.41699 13.4316 3.96973 19.3867h-16.4307c-25.0107 0 -45.3594 20.3486 -45.3594 45.3594c0 19.8594 12.832 36.7656 30.6367 42.8945l-70.2334 265.234h-44.0098v30.001h67.0996l28.9453 -109.311h241.73
c-1.38281 -6.72656 -2.11133 -13.6885 -2.11133 -20.8184c0 -19.6904 5.54785 -38.1094 15.1582 -53.7783v-81.6279h30.001v50.1357c16.541 -11.2891 36.5166 -17.8984 58.0088 -17.8984c3.71875 0 7.39062 0.202148 11.0098 0.587891l-22.9678 -90.0596h-297.909
c-8.46875 0 -15.3594 -6.89062 -15.3594 -15.3604zM289.428 246.669v-94.0752h30v94.0752h-30zM228.03 246.669v-94.0752h30.001v94.0752h-30.001zM166.635 246.669v-94.0752h30v94.0752h-30z" />
    <glyph glyph-name="011-shopping-cart-1" unicode="&#xf10a;" 
d="M159.997 0.00292969c0 26.5098 21.4902 47.999 48 47.999c26.5088 0 47.999 -21.4893 47.999 -47.999c0 -26.5088 -21.4902 -47.999 -47.999 -47.999c-26.5098 0 -48 21.4902 -48 47.999zM351.994 0.00292969c0 26.5098 21.4902 47.999 48 47.999
c26.5088 0 47.999 -21.4893 47.999 -47.999c0 -26.5088 -21.4902 -47.999 -47.999 -47.999c-26.5098 0 -48 21.4902 -48 47.999zM508.28 362.237c3.04004 -3.61621 4.31934 -8.41602 3.45605 -13.1201l-32 -175.997c-1.34375 -7.2959 -7.55176 -12.7041 -14.9434 -13.0879
l-285.5 -14.3672l8.99219 -33.6641h243.708c8.83203 0 16 -7.16797 16 -15.999c0 -8.83203 -7.16797 -16 -16 -16h-255.996c-7.26367 0 -13.5996 4.86328 -15.4561 11.8721l-82.2705 308.123h-62.2705c-8.83203 0 -16 7.16797 -16 15.999c0 8.83203 7.16797 16 16 16
h74.5586c7.26367 0 13.5996 -4.86328 15.4561 -11.8721l13.9199 -52.127h376.058c4.73633 0 9.24805 -2.11133 12.2881 -5.75977zM367.994 239.999c8.83203 0 16 7.16797 16 16s-7.16797 16 -16 16h-31.999v31.999c0 8.83203 -7.16797 16 -16 16s-16 -7.16797 -16 -16
v-31.999h-31.999c-8.83203 0 -16 -7.16797 -16 -16s7.16797 -16 16 -16h31.999v-31.999c0 -8.83203 7.16797 -16 16 -16s16 7.16797 16 16v31.999h31.999z" />
    <glyph glyph-name="001-add-to-basket" unicode="&#xf100;" 
d="M472 -4c0 -11.0459 -8.9541 -20 -20 -20h-20v-20c0 -11.0459 -8.9541 -20 -20 -20s-20 8.9541 -20 20v20h-20c-11.0459 0 -20 8.9541 -20 20s8.9541 20 20 20h20v20c0 11.0459 8.9541 20 20 20s20 -8.9541 20 -20v-20h20c11.0459 0 20 -8.9541 20 -20zM472 308v-192
c0 -11.0459 -8.9541 -20 -20 -20s-20 8.9541 -20 20v172h-40v-60c0 -11.0459 -8.9541 -20 -20 -20s-20 8.9541 -20 20v60h-192v-60c0 -11.0459 -8.9541 -20 -20 -20s-20 8.9541 -20 20v60h-40v-312h212c11.0459 0 20 -8.9541 20 -20s-8.9541 -20 -20 -20h-232
c-11.0459 0 -20 8.9541 -20 20v352c0 11.0459 8.9541 20 20 20h60.9463c7.94434 67.4766 65.4766 120 135.054 120s127.109 -52.5234 135.054 -120h60.9463c11.0459 0 20 -8.9541 20 -20zM350.659 328c-7.64062 45.3447 -47.1758 80 -94.6592 80
s-87.0186 -34.6553 -94.6592 -80h189.318z" />
    <glyph glyph-name="020-plus-1" unicode="&#xf113;" 
d="M287.943 223.943h224.057v-63.8867h-224.057v-224.057h-63.8867v224.057h-224.057v63.8867h224.057v224.057h63.8867v-224.057z" />
    <glyph glyph-name="003-shopping-cart" unicode="&#xf102;" 
d="M511.996 350.037l-54.9248 -269.777h-324.615l7.86328 -50.3232h258.668c25.8994 0 46.9688 -21.0703 46.9688 -46.9688s-21.0693 -46.9688 -46.9688 -46.9688c-25.8984 0 -46.9678 21.0713 -46.9678 46.9688c0 5.9834 1.1377 11.7021 3.18652 16.9697h-123.759
c2.0498 -5.26758 3.18652 -10.9873 3.18652 -16.9697c0 -25.8984 -21.0703 -46.9688 -46.9688 -46.9688c-25.8994 0 -46.9688 21.0713 -46.9688 46.9688c0 5.9834 1.13672 11.7021 3.18555 16.9697h-29.2373l-65.3105 418.007h-49.3301v29.999h75.0049l15.2969 -97.9062
h56.1221c-0.256836 -3.43652 -0.389648 -6.90625 -0.389648 -10.4062c0 -34.3262 12.5693 -65.7686 33.3408 -89.9795v-87.499h29.999v61.2715c9.29688 -6.02246 19.3564 -10.959 30.002 -14.6328v-46.6387h29.999v39.9297
c4.9375 -0.536133 9.94922 -0.819336 15.0273 -0.819336c5.05957 0 10.0547 0.28125 14.9756 0.813477v-39.9238h29.998v46.6201c10.6445 3.66895 20.7061 8.59961 30.0029 14.6172v-61.2373h29.998v87.4375c20.8027 24.2188 33.3936 55.6865 33.3936 90.041
c0 3.5 -0.132812 6.96973 -0.389648 10.4062h89.6113zM284.407 448c59.7549 0 108.368 -48.6133 108.368 -108.369c0 -59.7549 -48.6133 -108.369 -108.368 -108.369s-108.37 48.6143 -108.37 108.369c0 59.7559 48.6152 108.369 108.37 108.369zM299.406 291.299v33.333
h33.332v29.999h-33.332v33.332h-29.998v-33.332h-33.334v-29.999h33.334v-33.333h29.998z" />
    <glyph glyph-name="012-shopping-cart-2" unicode="&#xf10b;" 
d="M471.467 213.333c6.40039 -2.13281 10.666 -8.5332 8.5332 -10.666l-10.667 -42.667c0 -4.26562 -4.26562 -8.5332 -8.5332 -8.5332l-311.467 -42.666c8.53418 -14.9336 25.5996 -23.4668 42.667 -23.4668h243.2c6.39941 0 10.667 -4.2666 10.667 -10.667
s-4.26758 -10.667 -10.667 -10.667h-245.333c-34.1328 0 -66.1328 25.5996 -72.5332 59.7334l-51.2002 260.267h-55.4668c-6.40039 0 -10.667 4.2666 -10.667 10.667c0 6.39941 4.2666 10.666 10.666 10.666h64c4.2666 0 10.667 -4.26562 10.667 -8.5332l10.667 -55.4658
h149.334c6.40039 0 10.667 -4.2666 10.667 -10.667s-4.2666 -10.667 -10.667 -10.667h-145.067l38.4004 -192l311.467 40.5332l8.5332 36.2666c2.13281 6.40039 6.40039 10.666 12.7998 8.5332zM181.333 42.667c29.8672 0 53.333 -23.4678 53.333 -53.334
s-23.4658 -53.333 -53.333 -53.333c-29.8662 0 -53.333 23.4678 -53.333 53.334s23.4658 53.333 53.333 53.333zM181.333 -42.667c17.0674 0 32 14.9336 32 32s-14.9326 32 -32 32s-32 -14.9336 -32 -32s14.9326 -32 32 -32zM437.333 341.333
c6.40039 0 10.667 -4.2666 10.668 -10.667c0 -6.40039 -4.2666 -10.667 -10.667 -10.667h-32v-32c0 -6.40039 -4.2666 -10.667 -10.667 -10.667s-10.667 4.2666 -10.667 10.667v32h-32c-6.40039 0 -10.667 4.2666 -10.667 10.667s4.2666 10.667 10.667 10.667h32v32
c0 6.40039 4.2666 10.667 10.666 10.667c6.40039 0 10.667 -4.2666 10.667 -10.667v-32h32zM394.667 42.667c29.8662 0 53.333 -23.4678 53.333 -53.334s-23.4668 -53.333 -53.333 -53.333c-29.8672 0 -53.333 23.4678 -53.333 53.334s23.4658 53.333 53.333 53.333z
M394.667 -42.667c17.0664 0 32 14.9336 32 32s-14.9326 32 -32 32s-32 -14.9336 -32 -32s14.9326 -32 32 -32zM394.667 448c64 0 117.333 -53.333 117.333 -117.333s-53.333 -117.333 -117.333 -117.333s-117.333 53.333 -117.333 117.333s53.333 117.333 117.333 117.333z
M394.667 234.667c53.333 0 96 42.666 96 96c0 53.333 -42.667 96 -96 96s-96 -42.667 -96 -96s42.667 -96 96 -96z" />
    <glyph glyph-name="019-plus" unicode="&#xf112;" 
d="M477.09 238.546c19.2695 0 34.9092 -15.6396 34.9092 -34.9092v-23.2715c0 -19.2705 -15.6396 -34.9092 -34.9092 -34.9092h-174.546v-174.546c0 -19.2695 -15.6387 -34.9092 -34.9092 -34.9092h-23.2715c-19.2695 0 -34.9092 15.6396 -34.9092 34.9092v174.546h-174.545
c-19.2695 0 -34.9092 15.6387 -34.9092 34.9092v23.2715c0 19.2695 15.6396 34.9092 34.9092 34.9092h174.545v174.545c0 19.2695 15.6396 34.9092 34.9092 34.9092h23.2715c19.2705 0 34.9092 -15.6396 34.9092 -34.9092v-174.545h174.546zM477.09 238.546z" />
    <glyph glyph-name="005-add-to-cart-1" unicode="&#xf104;" 
d="M137 72c-8.27148 0 -15 -6.72852 -15 -15s6.72852 -15 15 -15h285v-30h-32.5801c1.66504 -4.69531 2.58008 -9.74219 2.58008 -15c0 -24.8135 -20.1865 -45 -45 -45s-45 20.1865 -45 45c0 5.25781 0.915039 10.3047 2.58008 15h-65.1602
c1.66504 -4.69531 2.58008 -9.74219 2.58008 -15c0 -24.8135 -20.1865 -45 -45 -45s-45 20.1865 -45 45c0 5.25781 0.915039 10.3047 2.58008 15h-17.5801c-24.8135 0 -45 20.1865 -45 45s20.1865 45 45 45h11.3008l-53.333 240h-94.9678v30h119.032l20 -90h173.112
c-6.5 13.6465 -10.1445 28.9053 -10.1445 45c0 57.8975 47.1025 105 105 105s105 -47.1025 105 -105c0 -37.9766 -20.2656 -71.3086 -50.5508 -89.75l-42.8418 -165.25h-281.607zM179.032 102h54.166l-5 60h-62.499zM315.698 162h-57.3965l5 -60h47.3965zM255.802 192
h62.3965l5 60h-72.3965zM340.802 102h54.5898l15.5566 60h-65.1465zM418.726 192l8.27637 31.9189c-6.47754 -1.25391 -13.1631 -1.91895 -20.002 -1.91895c-20.1123 0 -38.918 5.68848 -54.9033 15.5342l-3.79492 -45.5342h70.4238zM407 402
c-41.3555 0 -75 -33.6445 -75 -75s33.6445 -75 75 -75s75 33.6445 75 75s-33.6445 75 -75 75zM220.698 252h-74.999l13.333 -60h66.666zM212 -3c0 8.27148 -6.72852 15 -15 15s-15 -6.72852 -15 -15s6.72852 -15 15 -15s15 6.72852 15 15zM362 -3
c0 8.27148 -6.72852 15 -15 15s-15 -6.72852 -15 -15s6.72852 -15 15 -15s15 6.72852 15 15zM392 282v30h-30v30h30v30h30v-30h30v-30h-30v-30h-30z" />
    <glyph glyph-name="010-add-to-shopping-cart-1" unicode="&#xf109;" 
d="M288.223 67.6084c0 -12.8242 2.12598 -25.1611 6.04297 -36.6787h-100.651c0.0166016 -0.459961 0.0263672 -0.917969 0.0263672 -1.37793c0 -19.4736 -15.8447 -35.3164 -35.3184 -35.3164s-35.3174 15.8418 -35.3174 35.3164
c0 13.5811 7.73438 25.7773 19.6641 31.6631l-83.7529 302.092l-41.2549 11.1562c-6.15918 1.66504 -11.2998 5.62891 -14.4766 11.1611c-3.17871 5.5332 -4.01172 11.9727 -2.3457 18.1309c2.81055 10.3955 12.2881 17.6553 23.0469 17.6553
c2.09961 0 4.2002 -0.280273 6.24316 -0.833008l54.2139 -14.6602c7.99316 -2.16113 14.3936 -8.44336 16.7031 -16.3945l15.4912 -53.3311l369.572 0.0380859c14.2988 0 25.8916 -11.6943 25.8916 -25.9932c0 -14.2998 -11.5928 -25.8916 -25.8916 -25.8916h-17.1396
l-30.7324 -108.263c-11.2646 3.72559 -23.2939 5.74902 -35.7891 5.74902c-4.17871 0 -8.30273 -0.231445 -12.3643 -0.670898l27.7461 97.7412c0.15332 0.543945 0.0429688 1.13965 -0.298828 1.59277c-0.341797 0.452148 -0.882812 0.720703 -1.44922 0.720703h-49.1602
c-0.845703 0 -1.5918 -0.59668 -1.77539 -1.41895l-26.1904 -117.28c-21.291 -14.2891 -37.5283 -35.5449 -45.4268 -60.4775h-110.847l5.68066 -22.2305s48.2715 -2.33496 100.058 -5.54492c-0.126953 -2.20312 -0.198242 -4.41992 -0.198242 -6.6543zM237.078 280.536
c-0.347656 -0.43457 -0.477539 -0.991211 -0.356445 -1.53027l21.8467 -120.572c0.1875 -0.834961 0.916992 -1.41895 1.77441 -1.41895h30.5117c0.857422 0 1.58496 0.582031 1.77148 1.41699l21.8486 120.57c0.121094 0.541016 -0.0078125 1.09961 -0.353516 1.53125
c-0.347656 0.43457 -0.864258 0.681641 -1.41895 0.681641h-74.207c-0.553711 0 -1.07031 -0.24707 -1.41699 -0.678711zM166.945 160.271c0.258789 -0.916016 0.863281 -3.25586 2.39355 -3.25586h41.9062c0.989258 0.015625 1.78906 0.824219 1.78906 1.81836
c0 0.185547 -0.0253906 0.363281 -0.0761719 0.52832l-0.0966797 0.371094l-26.8125 120.062c-0.186523 0.835938 -0.915039 1.41992 -1.77246 1.41992h-49.1611c-0.568359 0 -1.11035 -0.269531 -1.45215 -0.722656
c-0.339844 -0.450195 -0.452148 -1.04492 -0.297852 -1.58789c0 0 33.3213 -117.72 33.5801 -118.634zM407.798 160.575c54.6719 0 98.9912 -44.3203 98.9912 -98.9922s-44.3193 -98.9932 -98.9912 -98.9932c-54.6729 0 -98.9932 44.3213 -98.9932 98.9932
s44.3203 98.9922 98.9932 98.9922zM462.623 46.3516c8.41211 0 15.2305 6.82031 15.2305 15.2314s-6.81836 15.2305 -15.2305 15.2305h-39.8506v39.5957c0 8.41016 -6.81934 15.2305 -15.2305 15.2305s-15.2305 -6.82031 -15.2305 -15.2305v-39.5957h-39.3408
c-8.41016 0 -15.2305 -6.81934 -15.2305 -15.2305s6.82031 -15.2314 15.2305 -15.2314h39.3408v-39.5957c0 -8.41211 6.81934 -15.2295 15.2305 -15.2295s15.2305 6.81738 15.2305 15.2295v39.5957h39.8506z" />
    <glyph glyph-name="017-add-to-cart-4" unicode="&#xf110;" 
d="M221.128 232c0 11.0459 8.9541 20 20 20h20v20c0 11.0459 8.9541 20 20 20s20 -8.9541 20 -20v-20h20c11.0459 0 20 -8.9541 20 -20s-8.9541 -20 -20 -20h-20v-20c0 -11.0459 -8.9541 -20 -20 -20s-20 8.9541 -20 20v20h-20c-11.0459 0 -20 8.9541 -20 20z
M511.364 343.033l-59.4873 -232c-2.26758 -8.84766 -10.2402 -15.0332 -19.373 -15.0332h-332.513c-11.0459 0 -20 8.9541 -20 20v292h-59.9912c-11.0459 0 -20 8.9541 -20 20s8.9541 20 20 20h79.9912c11.0459 0 20 -8.9541 20 -20v-60h372
c13.0557 0 22.6143 -12.3301 19.373 -24.9668zM466.216 328h-346.225v-192h296.994zM199.991 -4c0 -33.084 -26.916 -60 -60 -60s-60 26.916 -60 60s26.916 60 60 60s60 -26.916 60 -60zM159.991 -4c0 11.0283 -8.97266 20 -20 20c-11.0283 0 -20 -8.97168 -20 -20
s8.97168 -20 20 -20c11.0273 0 20 8.97168 20 20zM413.082 -4c0 -33.084 -26.916 -60 -60 -60s-60 26.916 -60 60s26.916 60 60 60s60 -26.916 60 -60zM373.082 -4c0 11.0283 -8.97168 20 -20 20s-20 -8.97168 -20 -20s8.97168 -20 20 -20s20 8.97168 20 20z" />
    <glyph glyph-name="009-add-to-basket-1" unicode="&#xf108;" 
d="M508.019 317.175c3.46973 -4.35742 4.76465 -10.0586 3.5127 -15.4854l-73.1377 -317.954c-1.90918 -8.30273 -9.2998 -14.1865 -17.8193 -14.1865h-329.154c-8.51855 0 -15.9092 5.88379 -17.8184 14.1865l-73.1367 317.954
c-1.24805 5.42676 0.0449219 11.1299 3.51465 15.4854c3.46777 4.3584 8.73535 6.89648 14.3037 6.89648h57.1084l-27.9521 27.9521c-14.2812 14.2812 -14.2812 37.4346 0 51.7158c14.2822 14.2803 37.4365 14.2822 51.7168 0l79.666 -79.668h154.354l79.666 79.668
c14.2803 14.2822 37.4346 14.2822 51.7168 0c14.2803 -14.2812 14.2803 -37.4346 0 -51.7158l-27.9521 -27.9521h57.1084c5.56934 0 10.8359 -2.53809 14.3037 -6.89648zM319.994 121.714c13.8604 0 25.0977 11.2373 25.0977 25.0967
c0 13.8604 -11.2373 25.0977 -25.0977 25.0977h-38.8975v38.8984c0 13.8613 -11.2373 25.0967 -25.0977 25.0967s-25.0967 -11.2373 -25.0967 -25.0967v-38.8984h-38.8984c-13.8623 0 -25.0977 -11.2354 -25.0977 -25.0977c0 -13.8613 11.2373 -25.0967 25.0977 -25.0967
h38.8984v-38.9004c0 -13.8613 11.2363 -25.0967 25.0967 -25.0967s25.0977 11.2373 25.0977 25.0967v38.9004h38.8975z" />
    <glyph glyph-name="014-shopping-cart-4" unicode="&#xf10d;" 
d="M282.752 333.376h65.251v-43.5h-65.251v-65.25h-43.499v65.25h-65.251v43.5h65.251v65.251h43.499v-65.251zM130.501 7.12305c0 24.0244 19.4766 43.501 43.501 43.501s43.501 -19.4766 43.501 -43.501s-19.4766 -43.501 -43.501 -43.501s-43.501 19.4766 -43.501 43.501
zM304.502 7.12305c0 24.0244 19.4766 43.501 43.501 43.501s43.501 -19.4766 43.501 -43.501s-19.4766 -43.501 -43.501 -43.501s-43.501 19.4766 -43.501 43.501zM0 376.877v43.501h87v-43.501h-87zM391.504 333.376h120.496l-106.358 -239.251h-294.063l-46.1104 323.207
l21.5322 3.0459h21.9688l40.4551 -282.754h227.941l67.6436 152.252h-53.5049v43.5z" />
  </font>
</defs>
</svg>
